DNS SERVER AENDERNum der staatlichen Zensur zu umgehen. Sollten wir von eurem Provider geseprrt werden, nutzt den TOR BROWSER oder ändert euren DNS SERVER.

Filmwünsche können bei uns im Forum abgegeben werden

Wir Speichern Nicht




 
 
 
Top Releases
Alpha.2018.MULTi.COMPLETE.BL...
Alpha.2018.German.DTS.DL.720...
Alpha.2018.German.DTS.DL.108...
Batman.Ninja.2018.German.DL....
Aufbruch.zum.Mond.2018.IMAX....
Kindeswohl.German.DL.1080p.B...
The.Accountant.-.Berechne.de...
Kindeswohl.German.DL.720p.Bl...
Durch.die.Wand.2017.READ.NFO...
Durch.die.Wand.2017.GERMAN.7...

Cinedubs
Dont.Worry.weglaufen.geht.ni...
Dont.Worry.weglaufen.geht.ni...
Gaensehaut.2.Gruseliges.Hall...
Aquaman.TS.LD.German.DL.720p...
Eho.Echo.German.720p.WEBRip....
Eho.Echo.German.1080p.WEBRip...
Bad.Times.at.the.El.Royale.2...
Bad.Spies.2018.German.DL.AC3...
Aquaman.2018.GERMAN.AC3.MD.7...
Bad.Spies.German.DL.AC3.Dubb...

Neuerscheinungen 2018-19
Ein.verlockendes.Spiel.2008....
Ein.verlockendes.Spiel.2008....
Welcome.Home.2018.German.AC3...
Der.mit.dem.Schlag.2016.GERM...
Kryo.2016.GERMAN.720p.HDTV.x...
The.Nun.2018.MULTi.COMPLETE....
Mein.bester.Feind.German.AC3...
Superfly.2018.German.AC3.5.1...
Superfly.2018.German.DL.AC3....
Superfly.2018.German.DL.AC3....

XXX
TransAngels.18.09.17.Korra.D...
TransAngels.18.12.13.Foxxy.P...
Teens.On.Sex.Carnage.23.XXX....
SisLovesMe.18.12.21.Scarlett...
ZeroTolerance.18.12.23.Judy....
TransAngels.18.11.22.Nikki.J...
WebYoung.18.12.28.Adria.Rae....
VintageFlash.18.12.28.Karina...
VintageFlash.18.12.24.Honour...
TransAngels.18.09.06.Natassi...
TheLifeErotic.18.12.25.Blake...
ShareMyBF.18.12.25.Autumn.Fa...
X-Sensual.18.12.10.Marselina...
TransAngels.18.10.22.Chanel....
VivThomas.18.12.26.Dominica....
TransAngels.18.09.15.Janelle...
Vixen.18.12.25.Mia.Melano.XX...
Tushy.18.12.27.Tori.Black.An...
Teens.On.Sex.Carnage.23.XXX....
TransAngels.18.12.15.Venux.L...

3D
Blade.Runner.2049.3D.2017.Ge...
Walhalla.Rising.3D.2009.DUAL...
Sleepwalker.3D.2011.DUAL.COM...
Bis.an.die.Grenzen.des.Unive...
Best.of.3D.vol.13.-.15.GERMA...
Limbradur.und.die.Magie.der....
Kaluoka.Hina.Das.Zauberriff....
Limbradur.und.die.Magie.der....
Smallfoot.3D.2018.COMPLETE.B...
Smallfoot.Ein.eisigartiges.A...
Skyscraper.3D.2018.German.DL...
Meg.3D.2018.MULTi.COMPLETE.B...
Meg.3D.2018.German.DL.1080p....
Gans.im.Glueck.3D.2018.MULTi...
The.Art.of.Flight.3D.2011.Ge...

Old_Stuff
Todfreunde.aka.Bad.Influence...
Animatrix.2003.German.DL.108...
Animatrix.2003.German.DL.720...
Akte.X.S06.German.DTS.DL.108...
The.Beauty.of.Gemina.Minor.S...
ZZ.Top.Live.from.Texas.2008....
Peter.Hase.2018.German.DL.10...
Akte.X.S05.German.DTS.DL.108...
Akte.X.S04.German.DTS.DL.108...
Akte.X.S03.German.DTS.DL.108...
Dunkirk.1958.COMPLETE.BLURAY...
Das.Wunder.von.Manhattan.199...
The.Amazing.Spiderman.2.Rise...
Rise.of.the.Predator.2014.Ge...
Detective.Dee.und.das.Geheim...

Filme
FBI.S01.GERMAN.DUBBED.720p.H...
The.Big.Bang.Theory.S12.GERM...
The.Big.Bang.Theory.S12.GERM...
John.Carter.vom.Mars.Princes...
Shapeshifter.2005.DUAL.COMPL...
Johnny.English.Man.lebt.nur....
Extrem.laut.und.unglaublich....
Das.Leuchten.der.Erinnerung....
Johnny.English.Man.lebt.nur....
Learning.to.Drive.Fahrstunde...
Stonehearst.Asylum.Diese.Mau...
Open.Windows.2014.German.DL....
Dame.Koenig.As.Spion.German....
Toetet.Smoochy.2002.GERMAN.D...
Last.Bullet.Showdown.der.Auf...
Rapunzel.Fuer.immer.verfoehn...
Rapunzel.Fuer.immer.verfoehn...
Wildes.Berlin.GERMAN.DOKU.72...
Denn.zum.Kuessen.sind.sie.da...
Unheimliche.Begegnung.der.dr...
Die.Geheimnisse.der.Spiderwi...
Insel.der.Piraten.1983.Germa...
Der.Buerotrottel.1961.German...
Siebzehn.2017.GERMAN.1080p.W...

 
 
Bad.Times.at.the.El.Royale.2018.German.DL.AC3D.1080p.WEBRip.x265-FuN

Jahr: 2018
Genre: Drama, Krimi
Sprache: Deutsch AC3 | Englisch AC3
Laufzeit: 2h 22mn
Bitrate: 1 905 Kbps
Format: MKV
Größe: 1.89 GiB
Release:

Beschreibung:

Das heruntergekommene Hotel El Royal an einem Abend in den Sechzigern: Es ist ein merkwürdiger Haufen an Leuten, den der Concierge Mike Miller (Lewis Pullman) heute in Empfang nimmt, bestehend aus dem Priester Daniel Flynn (Jeff Bridges), der Sängerin Darlene Sweet (Cynthia Erivo), dem Staubsaugervertreter Laramie Seymour Sullivan (Jon Hamm) und einer mysteriösen Unbekannten (Dakota Johnson). Jeder dieser Gäste merkt, dass etwas im Hotel ganz und gar nicht stimmt. Ein Zimmer wurde mit Abhörgeräten geradezu überhäuft, die Zimmerbewohner können außerdem ganz einfach beobachtet werden und der Priester schüttet Darlene etwas in ihr Getränk. Als dann auch noch der Sektenführer Billy Lee (Chris Hemsworth) anreist, ist endgültig klar, dass alles andere als eine normale Nacht im El Royal bevorsteht…



Complete name                            : Bad.Times.at.the.El.Royale.x265.mkv
Format                                   : Matroska
Format version                           : Version 4 / Version 2
File size                                : 1.89 GiB
Duration                                 : 2h 22mn
Overall bit rate                         : 1 905 Kbps
Encoded date                             : UTC 2018-12-21 04:54:54
Writing application                      : HandBrake 20181104205902-46598fd-master 2018110501
Writing library                          : Lavf58.12.100

Video
ID                                       : 1
Format                                   : HEVC
Format/Info                              : High Efficiency Video Coding
Format profile                           : Main@L4.0
Codec ID                                 : V_MPEGH/ISO/HEVC
Duration                                 : 2h 22mn
Bit rate                                 : 1 099 Kbps
Width                                    : 1 920 pixels
Height                                   : 804 pixels
Display aspect ratio                     : 2.40:1
Frame rate mode                          : Constant
Frame rate                               : 24.000 fps
Color space                              : YUV
Chroma subsampling                       : 4:2:0
Bit depth                                : 8 bits
Bits/(Pixel*Frame)                       : 0.030
Stream size                              : 1.09 GiB (58%)
Writing library                          : x265 2.8:[Windows][GCC 7.1.0][64 bit] 8bit+10bit+12bit
Encoding settings                        : cpuid=1111039 / frame-threads=4 / numa-pools=8,8 / wpp / no-pmode / no-pme / no-psnr / no-ssim / log-level=2 / input-csp=1 / input-res=1920x804 / interlace=0 / total-frames=0 / level-idc=0 / high-tier=1 / uhd-bd=0 / ref=3 / no-allow-non-conformance / no-repeat-headers / annexb / no-aud / no-hrd / info / hash=0 / no-temporal-layers / open-gop / min-keyint=24 / keyint=240 / gop-lookahead=0 / bframes=4 / b-adapt=2 / b-pyramid / bframe-bias=0 / rc-lookahead=20 / lookahead-slices=5 / scenecut=40 / radl=0 / no-intra-refresh / ctu=64 / min-cu-size=8 / no-rect / no-amp / max-tu-size=32 / tu-inter-depth=1 / tu-intra-depth=1 / limit-tu=0 / rdoq-level=0 / dynamic-rd=0.00 / no-ssim-rd / signhide / no-tskip / nr-intra=0 / nr-inter=0 / no-constrained-intra / no-strong-intra-smoothing / max-merge=2 / limit-refs=3 / no-limit-modes / me=1 / subme=2 / merange=57 / temporal-mvp / weightp / no-weightb / no-analyze-src-pics / deblock=0:0 / no-sao / no-sao-non-deblock / rd=3 / no-early-skip / rskip / no-fast-intra / no-tskip-fast / no-cu-lossless / no-b-intra / no-splitrd-skip / rdpenalty=0 / psy-rd=2.00 / psy-rdoq=0.00 / no-rd-refine / no-lossless / cbqpoffs=0 / crqpoffs=0 / rc=crf / crf=23.0 / qcomp=0.60 / qpstep=4 / stats-write=0 / stats-read=0 / ipratio=1.40 / pbratio=1.30 / aq-mode=1 / aq-strength=1.00 / cutree / zone-count=0 / no-strict-cbr / qg-size=32 / no-rc-grain / qpmax=69 / qpmin=0 / no-const-vbv / sar=1 / overscan=0 / videoformat=5 / range=0 / colorprim=1 / transfer=1 / colormatrix=1 / chromaloc=0 / display-window=0 / max-cll=0,0 / min-luma=0 / max-luma=255 / log2-max-poc-lsb=8 / vui-timing-info / vui-hrd-info / slices=1 / no-opt-qp-pps / no-opt-ref-list-length-pps / no-multi-pass-opt-rps / scenecut-bias=0.05 / no-opt-cu-delta-qp / no-aq-motion / no-hdr / no-hdr-opt / no-dhdr10-opt / no-idr-recovery-sei / analysis-reuse-level=5 / scale-factor=0 / refine-intra=0 / refine-inter=0 / refine-mv=0 / no-limit-sao / ctu-info=0 / no-lowpass-dct / refine-mv-type=0 / copy-pic=1 / max-ausize-factor=1.0 / no-dynamic-refine / no-single-sei
Default                                  : Yes
Forced                                   : No
DURATION                                 : 02:22:02.475000000

Audio #1
ID                                       : 2
Format                                   : AC-3
Format/Info                              : Audio Coding 3
Mode extension                           : CM (complete main)
Format settings, Endianness              : Big
Codec ID                                 : A_AC3
Duration                                 : 2h 22mn
Bit rate mode                            : Constant
Bit rate                                 : 384 Kbps
Channel(s)                               : 6 channels
Channel positions                        : Front: L C R, Side: L R, LFE
Sampling rate                            : 48.0 KHz
Bit depth                                : 16 bits
Compression mode                         : Lossy
Delay relative to video                  : -5ms
Stream size                              : 390 MiB (20%)
Title                                    : Surround
Language                                 : German
Default                                  : Yes
Forced                                   : No
DURATION                                 : 02:21:45.632000000

Audio #2
ID                                       : 3
Format                                   : AC-3
Format/Info                              : Audio Coding 3
Mode extension                           : CM (complete main)
Format settings, Endianness              : Big
Codec ID                                 : A_AC3
Duration                                 : 2h 22mn
Bit rate mode                            : Constant
Bit rate                                 : 384 Kbps
Channel(s)                               : 6 channels
Channel positions                        : Front: L C R, Side: L R, LFE
Sampling rate                            : 48.0 KHz
Bit depth                                : 16 bits
Compression mode                         : Lossy
Delay relative to video                  : -5ms
Stream size                              : 390 MiB (20%)
Title                                    : Surround
Language                                 : English
Default                                  : No
Forced                                   : No
DURATION                                 : 02:21:45.632000000


Download:
Share Online Share OnlineShare OnlineShare Online
 

Kommentare