DNS SERVER ÄNDERN, um der staatlichen Zensur zu entgehen. Sollten wir von eurem Provider gesperrt werden, nutzt den TOR BROWSER oder ändert euren DNS SERVER.

Filmwünsche können bei uns im Forum abgegeben werden

Wir Speichern Nicht




 
 
 
Top Releases
303.German.1080p.BluRay.x264...
303.2018.GERMAN.COMPLETE.BLU...
303.German.720p.BluRay.x264-...
Mile.22.2018.MULTI.COMPLETE....
Dog.Days.2018.MULTI.COMPLETE...
Mile.22.2018.German.DL.1080p...
Mile.22.2018.German.720p.Blu...
Reign.of.the.Supermen.2019.M...
Upgrade.2018.German.DL.1080p...
Upgrade.2018.German.720p.Blu...

Cinedubs
Siberia.2018.German.AC3D.WEB...
Siberia.2018.German.AC3D.WEB...
Climax.2018.German.DL.AC3.10...
Climax.2018.German.DL.AC3.72...
Mortal.Engines.Krieg.der.Sta...
Mortal.Engines.Krieg.der.Sta...
Der.Grinch.2018.German.DL.AC...
Der.Grinch.2018.German.DL.AC...
Widows.Toedliche.Witwen.2018...
Widows.Toedliche.Witwen.2018...

Neuerscheinungen 2018-19
Keepers.Die.Leuchtturmwaerte...
Gundermann.German.1080p.BluR...
Keepers.Die.Leuchtturmwaerte...
Keepers.Die.Leuchtturmwaerte...
So.was.von.da.German.1080p.B...
So.was.von.da.German.720p.Bl...
Gundermann.German.720p.BluRa...
Superfly.2018.MULTi.COMPLETE...
Superfly.German.720p.BluRay....
Superfly.German.DL.1080p.Blu...

XXX
Milfs.Like.It.Rough.2014.XXX...
NinaKayy.18.01.18.Hot.Tub.Fu...
NinaKayy.18.01.30.Taking.A.R...
Public.Anal.Amateurs.Spread....
Tushy.19.01.01.Brett.Rossi.X...
X-Sensual.18.12.16.Marselina...
Accidentally.Lesbian.4.2017....
Cute.And.Tight.Holes.2016.XX...
Her.Sweet.Asshole.Gets.Re.si...
Hot.Wife.Stories.2017.XXX.10...
The.House.Of.Sin.2014.XXX.72...
Trouble.X.2.2016.XXX.720p.HD...
Value.10.Real.Massive.Racks....
White.18.Yo.Mistresses.For.B...
Desperate.Lesbian.Wives.XXX....
Epic.Lesbian.Orgasms.2016.XX...
Kinky.Erotic.Suckjobs.XXX.HD...
Lesbian.Tongue.Massage.XXX.H...
MomPov.E450.Pheobe.XXX.1080p...
DadCrush.19.01.13.Vanna.Bard...

3D
Die.Reise.zum.Mittelpunkt.de...
Die.Reise.zum.Mittelpunkt.de...
Die.Reise.zum.Mittelpunkt.de...
Kaluoka.Hina.Das.Zauberriff....
Blade.Runner.2049.3D.2017.Ge...
Walhalla.Rising.3D.2009.DUAL...
Sleepwalker.3D.2011.DUAL.COM...
Bis.an.die.Grenzen.des.Unive...
Best.of.3D.vol.13.-.15.GERMA...
Limbradur.und.die.Magie.der....
Kaluoka.Hina.Das.Zauberriff....
Limbradur.und.die.Magie.der....
Smallfoot.3D.2018.COMPLETE.B...
Smallfoot.Ein.eisigartiges.A...
Skyscraper.3D.2018.German.DL...

Old_Stuff
Ip.Man.2.2010.German.DTS.108...
Todfreunde.aka.Bad.Influence...
Animatrix.2003.German.DL.108...
Animatrix.2003.German.DL.720...
Akte.X.S06.German.DTS.DL.108...
The.Beauty.of.Gemina.Minor.S...
ZZ.Top.Live.from.Texas.2008....
Peter.Hase.2018.German.DL.10...
Akte.X.S05.German.DTS.DL.108...
Akte.X.S04.German.DTS.DL.108...
Akte.X.S03.German.DTS.DL.108...
Dunkirk.1958.COMPLETE.BLURAY...
Das.Wunder.von.Manhattan.199...
The.Amazing.Spiderman.2.Rise...
Rise.of.the.Predator.2014.Ge...

Filme
The.Good.Doctor.S02.German.D...
The.Good.Doctor.S02.German.D...
NCIS.S16.GERMAN.DL.DUBBED.10...
NCIS.S16.GERMAN.DUBBED.720p....
Loooser.How.to.win.and.lose....
Generation.Sputnik.Das.golde...
Kubrick.Nixon.und.der.Mann.i...
Mega.Event.Skispringen.-.Wel...
Hund.und.Mensch.Das.Geheimni...
City.Slickers.1991.Remastere...
Metropolis.1927.Remastered.B...
Lake.Death.Tod.aus.der.Tiefe...
Gans.im.Glueck.2018.German.D...
Barbara.German.1080p.BluRay....
Bingo.Kuck.mal.wer.da.bellt....
Die.Reise.zum.Mittelpunkt.de...
Bad.Boys.2.2003.German.DL.10...
Grease.2.1982.German.DL.1080...
Der.Liebe.verfallen.1984.Ger...
Tin.Cup.1996.German.AC3.DL.1...
Tin.Cup.1996.German.AC3.DL.7...
Der.Weg.nach.El.Dorado.2000....
True.Detective.S03.German.DL...
True.Detective.S03.German.DL...

 
 
Speed.Kills.2018.1080p.BluRay.x264-SADPANDA

Jahr: 2018
Genre: Action, Drama
Sprache: Englisch DTS
Laufzeit: 1h 42mn
Bitrate: 10.7 Mbps
Format: MKV
Größe: 7.64 GiB
Release:

Beschreibung:

Biopic über den Rennboot-Mogul Donald Joel Aronow (John Travolta), der 1987 unter nur teilweise geklärten Umständen ermordet wurde. Aronow erlangte Bekanntheit durch seine wegweisenden Designs und Konstruktionen von Schnellbooten, darunter unter anderem das sogenannte Cigarette-Boot, das sich bei Drogendealern wie auch -fahndern höchster Beliebtheit erfreute. Seine Geschäfte brachten Aronow in eine Grauzone zwischen Illegalität und Glamour – so verkaufte er etwa auch Boote an arabische Scheichs, US-Präsidenten und Popstars -, was ihm letztendlich wohl zum Verhängnis wurde.



Complete name                            : Speed.Kills.2018.1080p.BluRay.x264-SADPANDA.mkv
Format                                   : Matroska
Format version                           : Version 4 / Version 2
File size                                : 7.64 GiB
Duration                                 : 1h 42mn
Overall bit rate                         : 10.7 Mbps
Encoded date                             : UTC 2019-01-05 18:59:58
Writing application                      : mkvmerge v29.0.0 ('Like It Or Not') 64-bit
Writing library                          : libebml v1.3.6 + libmatroska v1.4.9
DURATION                                 : 01:42:24.150000000
NUMBER_OF_FRAMES                         : 576014
NUMBER_OF_BYTES                          : 1158940168
_STATISTICS_WRITING_APP                  : mkvmerge v29.0.0 ('Like It Or Not') 64-bit
_STATISTICS_WRITING_DATE_UTC             : 2019-01-05 18:59:58
_STATISTICS_TAGS                         : BPS DURATION NUMBER_OF_FRAMES NUMBER_OF_BYTES

Video
ID                                       : 1
Format                                   : AVC
Format/Info                              : Advanced Video Codec
Format profile                           : High@L4.1
Format settings, CABAC                   : Yes
Format settings, ReFrames                : 5 frames
Codec ID                                 : V_MPEG4/ISO/AVC
Duration                                 : 1h 42mn
Bit rate                                 : 9 176 Kbps
Width                                    : 1 920 pixels
Height                                   : 816 pixels
Display aspect ratio                     : 2.35:1
Frame rate mode                          : Constant
Frame rate                               : 23.976 fps
Color space                              : YUV
Chroma subsampling                       : 4:2:0
Bit depth                                : 8 bits
Scan type                                : Progressive
Bits/(Pixel*Frame)                       : 0.244
Stream size                              : 6.41 GiB (84%)
Writing library                          : x264 core 157 r2935 545de2f
Encoding settings                        : cabac=1 / ref=5 / deblock=1:-3:-3 / analyse=0x3:0x113 / me=umh / subme=8 / psy=1 / psy_rd=1.00:0.25 / mixed_ref=1 / me_range=24 / chroma_me=1 / trellis=1 / 8x8dct=1 / cqm=0 / deadzone=21,11 / fast_pskip=1 / chroma_qp_offset=-4 / threads=25 / lookahead_threads=4 / sliced_threads=0 / nr=0 / decimate=1 / interlaced=0 / bluray_compat=0 / constrained_intra=0 / bframes=3 / b_pyramid=2 / b_adapt=1 / b_bias=0 / direct=3 / weightb=1 / open_gop=0 / weightp=2 / keyint=240 / keyint_min=24 / scenecut=40 / intra_refresh=0 / rc_lookahead=50 / rc=2pass / mbtree=1 / bitrate=9176 / ratetol=1.0 / qcomp=0.60 / qpmin=0 / qpmax=69 / qpstep=4 / cplxblur=20.0 / qblur=0.5 / ip_ratio=1.40 / aq=1:0.75
Default                                  : Yes
Forced                                   : No
DURATION                                 : 01:42:24.138000000
NUMBER_OF_FRAMES                         : 147312
NUMBER_OF_BYTES                          : 7045211296
_STATISTICS_WRITING_APP                  : mkvmerge v29.0.0 ('Like It Or Not') 64-bit
_STATISTICS_WRITING_DATE_UTC             : 2019-01-05 18:59:58
_STATISTICS_TAGS                         : BPS DURATION NUMBER_OF_FRAMES NUMBER_OF_BYTES

Audio
ID                                       : 2
Format                                   : DTS
Format/Info                              : Digital Theater Systems
Mode                                     : 16
Format settings, Endianness              : Big
Codec ID                                 : A_DTS
Duration                                 : 1h 42mn
Bit rate mode                            : Constant
Bit rate                                 : 1 509 Kbps
Channel(s)                               : 6 channels
Channel positions                        : Front: L C R, Side: L R, LFE
Sampling rate                            : 48.0 KHz
Bit depth                                : 24 bits
Compression mode                         : Lossy
Stream size                              : 1.08 GiB (14%)
Language                                 : English
Default                                  : Yes
Forced                                   : No


Download:
Share Online Share OnlineShare OnlineShare Online
 

Kommentare