DNS SERVER AENDERNum der staatlichen Zensur zu umgehen. Sollten wir von eurem Provider geseprrt werden, nutzt den TOR BROWSER oder ändert euren DNS SERVER.

Filmwünsche können bei uns im Forum abgegeben werden

Wir Speichern Nicht




 
 
 
Top Releases
Alpha.2018.MULTi.COMPLETE.BL...
Alpha.2018.German.DTS.DL.720...
Alpha.2018.German.DTS.DL.108...
Batman.Ninja.2018.German.DL....
Aufbruch.zum.Mond.2018.IMAX....
Kindeswohl.German.DL.1080p.B...
The.Accountant.-.Berechne.de...
Kindeswohl.German.DL.720p.Bl...
Durch.die.Wand.2017.READ.NFO...
Durch.die.Wand.2017.GERMAN.7...

Cinedubs
Dont.Worry.weglaufen.geht.ni...
Dont.Worry.weglaufen.geht.ni...
Gaensehaut.2.Gruseliges.Hall...
Aquaman.TS.LD.German.DL.720p...
Eho.Echo.German.720p.WEBRip....
Eho.Echo.German.1080p.WEBRip...
Bad.Times.at.the.El.Royale.2...
Bad.Spies.2018.German.DL.AC3...
Aquaman.2018.GERMAN.AC3.MD.7...
Bad.Spies.German.DL.AC3.Dubb...

Neuerscheinungen 2018-19
Ein.verlockendes.Spiel.2008....
Ein.verlockendes.Spiel.2008....
Welcome.Home.2018.German.AC3...
Der.mit.dem.Schlag.2016.GERM...
Kryo.2016.GERMAN.720p.HDTV.x...
The.Nun.2018.MULTi.COMPLETE....
Mein.bester.Feind.German.AC3...
Superfly.2018.German.AC3.5.1...
Superfly.2018.German.DL.AC3....
Superfly.2018.German.DL.AC3....

XXX
SimplyAnal.18.12.27.Camila.S...
TransAngels.18.09.17.Korra.D...
TransAngels.18.12.13.Foxxy.P...
Teens.On.Sex.Carnage.23.XXX....
SisLovesMe.18.12.21.Scarlett...
ZeroTolerance.18.12.23.Judy....
TransAngels.18.11.22.Nikki.J...
WebYoung.18.12.28.Adria.Rae....
VintageFlash.18.12.28.Karina...
VintageFlash.18.12.24.Honour...
TransAngels.18.09.06.Natassi...
TheLifeErotic.18.12.25.Blake...
ShareMyBF.18.12.25.Autumn.Fa...
X-Sensual.18.12.10.Marselina...
TransAngels.18.10.22.Chanel....
VivThomas.18.12.26.Dominica....
TransAngels.18.09.15.Janelle...
Vixen.18.12.25.Mia.Melano.XX...
Tushy.18.12.27.Tori.Black.An...
Teens.On.Sex.Carnage.23.XXX....

3D
Blade.Runner.2049.3D.2017.Ge...
Walhalla.Rising.3D.2009.DUAL...
Sleepwalker.3D.2011.DUAL.COM...
Bis.an.die.Grenzen.des.Unive...
Best.of.3D.vol.13.-.15.GERMA...
Limbradur.und.die.Magie.der....
Kaluoka.Hina.Das.Zauberriff....
Limbradur.und.die.Magie.der....
Smallfoot.3D.2018.COMPLETE.B...
Smallfoot.Ein.eisigartiges.A...
Skyscraper.3D.2018.German.DL...
Meg.3D.2018.MULTi.COMPLETE.B...
Meg.3D.2018.German.DL.1080p....
Gans.im.Glueck.3D.2018.MULTi...
The.Art.of.Flight.3D.2011.Ge...

Old_Stuff
Todfreunde.aka.Bad.Influence...
Animatrix.2003.German.DL.108...
Animatrix.2003.German.DL.720...
Akte.X.S06.German.DTS.DL.108...
The.Beauty.of.Gemina.Minor.S...
ZZ.Top.Live.from.Texas.2008....
Peter.Hase.2018.German.DL.10...
Akte.X.S05.German.DTS.DL.108...
Akte.X.S04.German.DTS.DL.108...
Akte.X.S03.German.DTS.DL.108...
Dunkirk.1958.COMPLETE.BLURAY...
Das.Wunder.von.Manhattan.199...
The.Amazing.Spiderman.2.Rise...
Rise.of.the.Predator.2014.Ge...
Detective.Dee.und.das.Geheim...

Filme
FBI.S01.GERMAN.DUBBED.720p.H...
The.Big.Bang.Theory.S12.GERM...
The.Big.Bang.Theory.S12.GERM...
John.Carter.vom.Mars.Princes...
Shapeshifter.2005.DUAL.COMPL...
Johnny.English.Man.lebt.nur....
Extrem.laut.und.unglaublich....
Das.Leuchten.der.Erinnerung....
Johnny.English.Man.lebt.nur....
Learning.to.Drive.Fahrstunde...
Stonehearst.Asylum.Diese.Mau...
Open.Windows.2014.German.DL....
Dame.Koenig.As.Spion.German....
Toetet.Smoochy.2002.GERMAN.D...
Last.Bullet.Showdown.der.Auf...
Rapunzel.Fuer.immer.verfoehn...
Rapunzel.Fuer.immer.verfoehn...
Wildes.Berlin.GERMAN.DOKU.72...
Denn.zum.Kuessen.sind.sie.da...
Unheimliche.Begegnung.der.dr...
Die.Geheimnisse.der.Spiderwi...
Insel.der.Piraten.1983.Germa...
Der.Buerotrottel.1961.German...
Siebzehn.2017.GERMAN.1080p.W...

 
 
Wer.spinnt.denn.da.Herr.Doktor.1982.German.1080p.BluRay.x264-iFPD

Jahr: 1982
Genre: Komödie
Sprache: Deutsch DTS
Laufzeit: 1h 17mn
Bitrate: 9 449 Kbps
Format: MKV
Größe: 5.12 GiB
Release:

Beschreibung:

Nr. 7 (Otto Sander) ist seit zwei bis fünf Jahren in der Nervenheilanstalt, reißt aus, wird wieder eingefangen, reißt aus usw. Als er wieder einmal am Pförtner vorbei spaziert, bringt er eine Reihe von skurrilen Ereignissen in Gang, für die er nur teilweise verantwortlich ist. Gleich vor dem Eingang wird ihm ein Mercedes ‚anvertraut‘, dann wirbt er in einem Kaufhaus für Wodka Karamasov, wird unverrichteter Dinge Taxifahrer, zerstört ein Fenster des Hotel Hilton, wird mit seinem Schlafplatz, einem LKW, an den Schauplatz eines Verbrechens gefahren, geht mit ‚seinem‘ Nervenarzt in die Bongo Bar, rettet dem dort tätigen lebensmüden Affen das Leben und findet nebenbei die Frau fürs Leben.



Complete name                            : ifpd-spinntdenndoktor-1080p.mkv
Format                                   : Matroska
Format version                           : Version 4 / Version 2
File size                                : 5.12 GiB
Duration                                 : 1h 17mn
Overall bit rate                         : 9 449 Kbps
Encoded date                             : UTC 2014-10-15 08:09:33
Writing application                      : mkvmerge v7.2.0 ('On Every Street') 32bit built on Sep 13 2014 15:42:11
Writing library                          : libebml v1.3.0 + libmatroska v1.4.1

Video
ID                                       : 1
Format                                   : AVC
Format/Info                              : Advanced Video Codec
Format profile                           : High@L4.1
Format settings, CABAC                   : Yes
Format settings, ReFrames                : 4 frames
Codec ID                                 : V_MPEG4/ISO/AVC
Duration                                 : 1h 17mn
Bit rate                                 : 7 752 Kbps
Width                                    : 1 920 pixels
Height                                   : 1 080 pixels
Display aspect ratio                     : 16:9
Frame rate mode                          : Constant
Frame rate                               : 25.000 fps
Color space                              : YUV
Chroma subsampling                       : 4:2:0
Bit depth                                : 8 bits
Scan type                                : Progressive
Bits/(Pixel*Frame)                       : 0.150
Stream size                              : 4.20 GiB (82%)
Title                                    : Wer spinnt denn da, Herr Doktor? (1982)
Writing library                          : x264 core 142 r2479 dd79a61
Encoding settings                        : cabac=1 / ref=4 / deblock=1:-3:-3 / analyse=0x3:0x113 / me=umh / subme=7 / psy=1 / psy_rd=1.00:0.00 / mixed_ref=1 / me_range=16 / chroma_me=1 / trellis=1 / 8x8dct=1 / cqm=0 / deadzone=21,11 / fast_pskip=0 / chroma_qp_offset=-2 / threads=10 / lookahead_threads=1 / sliced_threads=0 / nr=0 / decimate=1 / interlaced=0 / bluray_compat=0 / constrained_intra=0 / bframes=3 / b_pyramid=2 / b_adapt=1 / b_bias=0 / direct=3 / weightb=1 / open_gop=0 / weightp=2 / keyint=250 / keyint_min=25 / scenecut=40 / intra_refresh=0 / rc_lookahead=40 / rc=crf / mbtree=1 / crf=20.0 / qcomp=0.60 / qpmin=0 / qpmax=69 / qpstep=4 / ip_ratio=1.40 / aq=1:1.00
Default                                  : Yes
Forced                                   : No

Audio
ID                                       : 2
Format                                   : DTS
Format/Info                              : Digital Theater Systems
Mode                                     : 16
Format settings, Endianness              : Big
Codec ID                                 : A_DTS
Duration                                 : 1h 17mn
Bit rate mode                            : Constant
Bit rate                                 : 1 509 Kbps
Channel(s)                               : 2 channels
Channel positions                        : Front: L R
Sampling rate                            : 48.0 KHz
Bit depth                                : 24 bits
Compression mode                         : Lossy
Stream size                              : 837 MiB (16%)
Title                                    : German
Language                                 : German
Default                                  : Yes
Forced                                   : No


Download:
Share Online Share OnlineShare OnlineShare Online
 

Kommentare