DNS SERVER AENDERNum der staatlichen Zensur zu umgehen. Sollten wir von eurem Provider geseprrt werden, nutzt den TOR BROWSER oder ändert euren DNS SERVER.

Filmwünsche können bei uns im Forum abgegeben werden

Wir Speichern Nicht




 
 
 
Top Releases
Alpha.2018.MULTi.COMPLETE.BL...
Alpha.2018.German.DTS.DL.720...
Alpha.2018.German.DTS.DL.108...
Batman.Ninja.2018.German.DL....
Aufbruch.zum.Mond.2018.IMAX....
Kindeswohl.German.DL.1080p.B...
The.Accountant.-.Berechne.de...
Kindeswohl.German.DL.720p.Bl...
Durch.die.Wand.2017.READ.NFO...
Durch.die.Wand.2017.GERMAN.7...

Cinedubs
Dont.Worry.weglaufen.geht.ni...
Dont.Worry.weglaufen.geht.ni...
Gaensehaut.2.Gruseliges.Hall...
Aquaman.TS.LD.German.DL.720p...
Eho.Echo.German.720p.WEBRip....
Eho.Echo.German.1080p.WEBRip...
Bad.Times.at.the.El.Royale.2...
Bad.Spies.2018.German.DL.AC3...
Aquaman.2018.GERMAN.AC3.MD.7...
Bad.Spies.German.DL.AC3.Dubb...

Neuerscheinungen 2018-19
Ein.verlockendes.Spiel.2008....
Ein.verlockendes.Spiel.2008....
Welcome.Home.2018.German.AC3...
Der.mit.dem.Schlag.2016.GERM...
Kryo.2016.GERMAN.720p.HDTV.x...
The.Nun.2018.MULTi.COMPLETE....
Mein.bester.Feind.German.AC3...
Superfly.2018.German.AC3.5.1...
Superfly.2018.German.DL.AC3....
Superfly.2018.German.DL.AC3....

XXX
ThisGirlSucks.18.12.26.Cara....
TransAngels.18.09.08.Alisia....
WhenGirlsPlay.18.12.27.Hanna...
WhenGirlsPlay.18.12.25.Julia...
StepSiblingsCaught.18.12.27....
SimplyAnal.18.12.27.Camila.S...
TransAngels.18.09.17.Korra.D...
TransAngels.18.12.13.Foxxy.P...
Teens.On.Sex.Carnage.23.XXX....
SisLovesMe.18.12.21.Scarlett...
ZeroTolerance.18.12.23.Judy....
TransAngels.18.11.22.Nikki.J...
WebYoung.18.12.28.Adria.Rae....
VintageFlash.18.12.28.Karina...
VintageFlash.18.12.24.Honour...
TransAngels.18.09.06.Natassi...
TheLifeErotic.18.12.25.Blake...
ShareMyBF.18.12.25.Autumn.Fa...
X-Sensual.18.12.10.Marselina...
TransAngels.18.10.22.Chanel....

3D
Blade.Runner.2049.3D.2017.Ge...
Walhalla.Rising.3D.2009.DUAL...
Sleepwalker.3D.2011.DUAL.COM...
Bis.an.die.Grenzen.des.Unive...
Best.of.3D.vol.13.-.15.GERMA...
Limbradur.und.die.Magie.der....
Kaluoka.Hina.Das.Zauberriff....
Limbradur.und.die.Magie.der....
Smallfoot.3D.2018.COMPLETE.B...
Smallfoot.Ein.eisigartiges.A...
Skyscraper.3D.2018.German.DL...
Meg.3D.2018.MULTi.COMPLETE.B...
Meg.3D.2018.German.DL.1080p....
Gans.im.Glueck.3D.2018.MULTi...
The.Art.of.Flight.3D.2011.Ge...

Old_Stuff
Todfreunde.aka.Bad.Influence...
Animatrix.2003.German.DL.108...
Animatrix.2003.German.DL.720...
Akte.X.S06.German.DTS.DL.108...
The.Beauty.of.Gemina.Minor.S...
ZZ.Top.Live.from.Texas.2008....
Peter.Hase.2018.German.DL.10...
Akte.X.S05.German.DTS.DL.108...
Akte.X.S04.German.DTS.DL.108...
Akte.X.S03.German.DTS.DL.108...
Dunkirk.1958.COMPLETE.BLURAY...
Das.Wunder.von.Manhattan.199...
The.Amazing.Spiderman.2.Rise...
Rise.of.the.Predator.2014.Ge...
Detective.Dee.und.das.Geheim...

Filme
FBI.S01.GERMAN.DUBBED.720p.H...
The.Big.Bang.Theory.S12.GERM...
The.Big.Bang.Theory.S12.GERM...
John.Carter.vom.Mars.Princes...
Shapeshifter.2005.DUAL.COMPL...
Johnny.English.Man.lebt.nur....
Extrem.laut.und.unglaublich....
Das.Leuchten.der.Erinnerung....
Johnny.English.Man.lebt.nur....
Learning.to.Drive.Fahrstunde...
Stonehearst.Asylum.Diese.Mau...
Open.Windows.2014.German.DL....
Dame.Koenig.As.Spion.German....
Toetet.Smoochy.2002.GERMAN.D...
Last.Bullet.Showdown.der.Auf...
Rapunzel.Fuer.immer.verfoehn...
Rapunzel.Fuer.immer.verfoehn...
Wildes.Berlin.GERMAN.DOKU.72...
Denn.zum.Kuessen.sind.sie.da...
Unheimliche.Begegnung.der.dr...
Die.Geheimnisse.der.Spiderwi...
Insel.der.Piraten.1983.Germa...
Der.Buerotrottel.1961.German...
Siebzehn.2017.GERMAN.1080p.W...

 
 
Das.Gesetz.der.Ehre.2008.German.DL.1080p.BluRay.x264.iNTERNAL-EXPS

Sprache: Deutsch AC3 | Englisch AC3
Laufzeit: 2h 10mn
Bitrate: 10.8 Mbps
Format: MKV
Größe: 9.80 GiB
Release:

Beschreibung:

In dem kompromisslosen, aufwühlenden Porträt einer Familie mit langer Tradition im Polizeidienst kommt es zum offenen Konflikt, als ein Korruptionsskandal innerhalb der New Yorker Polizei Schlagzeilen macht. Vier New Yorker Cops sterben in einem Hinterhalt. Weil der Killer noch nicht gefasst ist und viel auf dem Spiel steht, übergibt Francis Tierney, Sr., Chief der Manhattan Detectives, den Fall seinem Sohn, Detective Ray Tierney. Eher widerwillig nimmt Ray die Ermittlungen auf, denn die toten Cops standen unter dem Befehl seines Bruders Francis Tierney jr. und seines Schwagers Jimmy Egan. Auf den ersten Blick sieht es so aus, als ob der Routineeinsatz während einer Drogenrazzia in einer furchtbaren Tragödie endete. Doch als Ray sich näher mit dem Fall beschäftigt, entdeckt er, dass jemand die Drogendealer vor den Cops gewarnt hat jemand aus dem Revier…



Complete name                            : exps-gesetzehre-1080p.mkv
Format                                   : Matroska
Format version                           : Version 4 / Version 2
File size                                : 9.80 GiB
Duration                                 : 2h 10mn
Overall bit rate                         : 10.8 Mbps
Encoded date                             : UTC 2019-01-06 06:37:20
Writing application                      : mkvmerge v9.0.1 ('Obstacles') 64bit
Writing library                          : libebml v1.3.3 + libmatroska v1.4.4
DURATION                                 : 02:10:09.440000000
NUMBER_OF_FRAMES                         : 244045
NUMBER_OF_BYTES                          : 624755200
_STATISTICS_WRITING_APP                  : mkvmerge v9.0.1 ('Obstacles') 64bit
_STATISTICS_WRITING_DATE_UTC             : 2019-01-06 06:37:20
_STATISTICS_TAGS                         : BPS DURATION NUMBER_OF_FRAMES NUMBER_OF_BYTES

Video
ID                                       : 1
Format                                   : AVC
Format/Info                              : Advanced Video Codec
Format profile                           : High@L4.1
Format settings, CABAC                   : Yes
Format settings, ReFrames                : 4 frames
Codec ID                                 : V_MPEG4/ISO/AVC
Duration                                 : 2h 10mn
Bit rate                                 : 9 501 Kbps
Width                                    : 1 920 pixels
Height                                   : 1 080 pixels
Display aspect ratio                     : 16:9
Frame rate mode                          : Constant
Frame rate                               : 23.976 fps
Color space                              : YUV
Chroma subsampling                       : 4:2:0
Bit depth                                : 8 bits
Scan type                                : Progressive
Bits/(Pixel*Frame)                       : 0.191
Stream size                              : 8.44 GiB (86%)
Writing library                          : x264 core 157 r2935 545de2f
Encoding settings                        : cabac=1 / ref=4 / deblock=1:-1:-1 / analyse=0x3:0x113 / me=umh / subme=7 / psy=1 / psy_rd=1.00:0.00 / mixed_ref=1 / me_range=16 / chroma_me=1 / trellis=1 / 8x8dct=1 / cqm=0 / deadzone=21,11 / fast_pskip=0 / chroma_qp_offset=-2 / threads=12 / lookahead_threads=2 / sliced_threads=0 / nr=0 / decimate=1 / interlaced=0 / bluray_compat=0 / constrained_intra=0 / bframes=3 / b_pyramid=2 / b_adapt=1 / b_bias=0 / direct=3 / weightb=1 / open_gop=0 / weightp=2 / keyint=250 / keyint_min=23 / scenecut=40 / intra_refresh=0 / rc_lookahead=40 / rc=2pass / mbtree=1 / bitrate=9501 / ratetol=1.0 / qcomp=0.60 / qpmin=0 / qpmax=69 / qpstep=4 / cplxblur=20.0 / qblur=0.5 / ip_ratio=1.40 / aq=1:1.00
Default                                  : Yes
Forced                                   : No

Audio #1
ID                                       : 2
Format                                   : AC-3
Format/Info                              : Audio Coding 3
Mode extension                           : CM (complete main)
Format settings, Endianness              : Big
Codec ID                                 : A_AC3
Duration                                 : 2h 10mn
Bit rate mode                            : Constant
Bit rate                                 : 640 Kbps
Channel(s)                               : 6 channels
Channel positions                        : Front: L C R, Side: L R, LFE
Sampling rate                            : 48.0 KHz
Bit depth                                : 16 bits
Compression mode                         : Lossy
Stream size                              : 596 MiB (6%)
Language                                 : German
Default                                  : Yes
Forced                                   : No

Audio #2
ID                                       : 3
Format                                   : AC-3
Format/Info                              : Audio Coding 3
Mode extension                           : CM (complete main)
Format settings, Endianness              : Big
Codec ID                                 : A_AC3
Duration                                 : 2h 10mn
Bit rate mode                            : Constant
Bit rate                                 : 640 Kbps
Channel(s)                               : 6 channels
Channel positions                        : Front: L C R, Side: L R, LFE
Sampling rate                            : 48.0 KHz
Bit depth                                : 16 bits
Compression mode                         : Lossy
Stream size                              : 596 MiB (6%)
Language                                 : English
Default                                  : No
Forced                                   : No


Download:
Share Online Share OnlineShare OnlineShare Online
 

Kommentare