DNS SERVER ÄNDERN, um der staatlichen Zensur zu entgehen. Sollten wir von eurem Provider gesperrt werden, nutzt den TOR BROWSER oder ändert euren DNS SERVER.

Filmwünsche können bei uns im Forum abgegeben werden

Wir Speichern Nicht




 
 
 
Top Releases
303.German.1080p.BluRay.x264...
303.2018.GERMAN.COMPLETE.BLU...
303.German.720p.BluRay.x264-...
Mile.22.2018.MULTI.COMPLETE....
Dog.Days.2018.MULTI.COMPLETE...
Mile.22.2018.German.DL.1080p...
Mile.22.2018.German.720p.Blu...
Reign.of.the.Supermen.2019.M...
Upgrade.2018.German.DL.1080p...
Upgrade.2018.German.720p.Blu...

Cinedubs
Siberia.2018.German.AC3D.WEB...
Siberia.2018.German.AC3D.WEB...
Climax.2018.German.DL.AC3.10...
Climax.2018.German.DL.AC3.72...
Mortal.Engines.Krieg.der.Sta...
Mortal.Engines.Krieg.der.Sta...
Der.Grinch.2018.German.DL.AC...
Der.Grinch.2018.German.DL.AC...
Widows.Toedliche.Witwen.2018...
Widows.Toedliche.Witwen.2018...

Neuerscheinungen 2018-19
Keepers.Die.Leuchtturmwaerte...
Gundermann.German.1080p.BluR...
Keepers.Die.Leuchtturmwaerte...
Keepers.Die.Leuchtturmwaerte...
So.was.von.da.German.1080p.B...
So.was.von.da.German.720p.Bl...
Gundermann.German.720p.BluRa...
Superfly.2018.MULTi.COMPLETE...
Superfly.German.720p.BluRay....
Superfly.German.DL.1080p.Blu...

XXX
ErotiqueTVLive.18.05.11.Viol...
ErotiqueTVLive.18.05.19.Kate...
FirstAnalQuest.19.01.01.Deni...
Made.to.Tit.Fuck.2013.XXX.10...
Milfs.Like.It.Rough.2014.XXX...
NinaKayy.18.01.18.Hot.Tub.Fu...
NinaKayy.18.01.30.Taking.A.R...
Public.Anal.Amateurs.Spread....
Tushy.19.01.01.Brett.Rossi.X...
X-Sensual.18.12.16.Marselina...
Accidentally.Lesbian.4.2017....
Cute.And.Tight.Holes.2016.XX...
Her.Sweet.Asshole.Gets.Re.si...
Hot.Wife.Stories.2017.XXX.10...
The.House.Of.Sin.2014.XXX.72...
Trouble.X.2.2016.XXX.720p.HD...
Value.10.Real.Massive.Racks....
White.18.Yo.Mistresses.For.B...
Desperate.Lesbian.Wives.XXX....
Epic.Lesbian.Orgasms.2016.XX...

3D
Die.Reise.zum.Mittelpunkt.de...
Die.Reise.zum.Mittelpunkt.de...
Die.Reise.zum.Mittelpunkt.de...
Kaluoka.Hina.Das.Zauberriff....
Blade.Runner.2049.3D.2017.Ge...
Walhalla.Rising.3D.2009.DUAL...
Sleepwalker.3D.2011.DUAL.COM...
Bis.an.die.Grenzen.des.Unive...
Best.of.3D.vol.13.-.15.GERMA...
Limbradur.und.die.Magie.der....
Kaluoka.Hina.Das.Zauberriff....
Limbradur.und.die.Magie.der....
Smallfoot.3D.2018.COMPLETE.B...
Smallfoot.Ein.eisigartiges.A...
Skyscraper.3D.2018.German.DL...

Old_Stuff
Ip.Man.2.2010.German.DTS.108...
Todfreunde.aka.Bad.Influence...
Animatrix.2003.German.DL.108...
Animatrix.2003.German.DL.720...
Akte.X.S06.German.DTS.DL.108...
The.Beauty.of.Gemina.Minor.S...
ZZ.Top.Live.from.Texas.2008....
Peter.Hase.2018.German.DL.10...
Akte.X.S05.German.DTS.DL.108...
Akte.X.S04.German.DTS.DL.108...
Akte.X.S03.German.DTS.DL.108...
Dunkirk.1958.COMPLETE.BLURAY...
Das.Wunder.von.Manhattan.199...
The.Amazing.Spiderman.2.Rise...
Rise.of.the.Predator.2014.Ge...

Filme
The.Good.Doctor.S02.German.D...
The.Good.Doctor.S02.German.D...
NCIS.S16.GERMAN.DL.DUBBED.10...
NCIS.S16.GERMAN.DUBBED.720p....
Loooser.How.to.win.and.lose....
Generation.Sputnik.Das.golde...
Kubrick.Nixon.und.der.Mann.i...
Mega.Event.Skispringen.-.Wel...
Hund.und.Mensch.Das.Geheimni...
City.Slickers.1991.Remastere...
Metropolis.1927.Remastered.B...
Lake.Death.Tod.aus.der.Tiefe...
Gans.im.Glueck.2018.German.D...
Barbara.German.1080p.BluRay....
Bingo.Kuck.mal.wer.da.bellt....
Die.Reise.zum.Mittelpunkt.de...
Bad.Boys.2.2003.German.DL.10...
Grease.2.1982.German.DL.1080...
Der.Liebe.verfallen.1984.Ger...
Tin.Cup.1996.German.AC3.DL.1...
Tin.Cup.1996.German.AC3.DL.7...
Der.Weg.nach.El.Dorado.2000....
True.Detective.S03.German.DL...
True.Detective.S03.German.DL...

 
 
Das.blaue.Licht.2010.GERMAN.720p.HDTV.x264-TMSF

Jahr: 2010
Genre: Fantasy
Sprache: Deutsch AC3
Laufzeit: 59mn 2s
Bitrate: 6 043 Kbps
Format: MKV
Größe: 2.49 GiB
Release:

Beschreibung:

Da wusste der Soldat nicht womit er sein Leben fristen sollte; ging voll Sorgen fort und ging den ganzen Tag, bis er abends in einen Wald kam. Als die Finsternis einbrach, sah er ein Licht, dem näherte er sich und kam zu einem Haus, darin wohnte eine Hexe. Die Hexe stellt ihm drei Aufgaben, an zweien scheitert er, die dritte ist, ihr ein blaues Licht aus einem trockenen Brunnen herauf zu bringen. Er wird herabgelassen, findet das Lämpchen, wird aber argwöhnisch und will es erst aushändigen, wenn er auf festem Boden stehe. Die erboste Hexe lässt ihn daraufhin mit dem Licht abstürzen.



Complete name                            : tmsf-dasblauelicht2010-720p.mkv
Format                                   : Matroska
Format version                           : Version 4 / Version 2
File size                                : 2.49 GiB
Duration                                 : 59mn 2s
Overall bit rate                         : 6 043 Kbps
Encoded date                             : UTC 2019-01-11T07:16:44Z
Writing application                      : HandBrake 1.1.2 2018090500
Writing library                          : Lavf57.7.2

Video
ID                                       : 1
Format                                   : AVC
Format/Info                              : Advanced Video Codec
Format profile                           : High@L4.1
Format settings, CABAC                   : Yes
Format settings, ReFrames                : 5 frames
Codec ID                                 : V_MPEG4/ISO/AVC
Duration                                 : 59mn 2s
Bit rate                                 : 5 539 Kbps
Width                                    : 1 280 pixels
Height                                   : 720 pixels
Display aspect ratio                     : 16:9
Frame rate mode                          : Constant
Frame rate                               : 25.000 fps
Color space                              : YUV
Chroma subsampling                       : 4:2:0
Bit depth                                : 8 bits
Scan type                                : Progressive
Bits/(Pixel*Frame)                       : 0.240
Stream size                              : 2.28 GiB (92%)
Writing library                          : x264 core 155 r2901 7d0ff22
Encoding settings                        : cabac=1 / ref=5 / deblock=1:-3:-3 / analyse=0x3:0x112 / me=umh / subme=7 / psy=1 / psy_rd=1.00:0.15 / mixed_ref=1 / me_range=16 / chroma_me=1 / trellis=1 / 8x8dct=1 / cqm=0 / deadzone=21,11 / fast_pskip=0 / chroma_qp_offset=-3 / threads=12 / lookahead_threads=2 / sliced_threads=0 / nr=0 / decimate=1 / interlaced=0 / bluray_compat=0 / constrained_intra=0 / bframes=3 / b_pyramid=2 / b_adapt=2 / b_bias=0 / direct=3 / weightb=1 / open_gop=0 / weightp=2 / keyint=240 / keyint_min=24 / scenecut=40 / intra_refresh=0 / rc_lookahead=50 / rc=crf / mbtree=1 / crf=20.0 / qcomp=0.60 / qpmin=0 / qpmax=69 / qpstep=4 / ip_ratio=1.40 / aq=1:1.00
Default                                  : Yes
Forced                                   : No

Audio
ID                                       : 2
Format                                   : AC-3
Format/Info                              : Audio Coding 3
Mode extension                           : CM (complete main)
Format settings, Endianness              : Big
Codec ID                                 : A_AC3
Duration                                 : 59mn 2s
Bit rate mode                            : Constant
Bit rate                                 : 384 Kbps
Channel(s)                               : 2 channels
Channel positions                        : Front: L R
Sampling rate                            : 48.0 KHz
Bit depth                                : 16 bits
Compression mode                         : Lossy
Delay relative to video                  : 32ms
Stream size                              : 162 MiB (6%)
Title                                    : Stereo
Language                                 : German
Default                                  : Yes
Forced                                   : No


Download:
Share Online Share OnlineShare OnlineShare Online
 

Kommentare